menu

Saturday, 28 July 2012

Rowdy-Rathore-2012-1CD--XviD-AC3-DDR


 Here i present you Rowdy Rathore in better print.So here we go for the info of video file::


Complete name : Rowdy Rathore (2012)_1CD_DVDRip_Xvid MP3 Subs.avi
Format : AVI
Format/Info : Audio Video Interleave
File size : 699 MiB
Duration : 2h 23mn
Overall bit rate : 680 Kbps
Writing library : VirtualDub build 32661/release

Video
ID : 0
Format : MPEG-4 Visual
Format profile : Advanced Simple@L5
Format settings, BVOP : 2
Format settings, QPel : Yes
Format settings, GMC : No warppoints
Format settings, Matrix : Default (H.263)
Codec ID : XVID
Codec ID/Hint : XviD
Duration : 2h 23mn
Bit rate : 574 Kbps
Width : 608 pixels
Height : 256 pixels
Display aspect ratio : 2.40:1
Frame rate : 23.976 fps
Color space : YUV
Chroma subsampling : 4:2:0
Bit depth : 8 bits
Scan type : Progressive
Compression mode : Lossy
Bits/(Pixel*Frame) : 0.154
Stream size : 591 MiB (84%)
Writing library : XviD 1.2.1 (UTC 2008-12-04)

Audio
ID : 1
Format : MPEG Audio
Format version : Version 1
Format profile : Layer 3
Mode : Joint stereo
Mode extension : MS Stereo
Codec ID : 55
Codec ID/Hint : MP3
Duration : 2h 23mn
Bit rate mode : Constant
Bit rate : 96.0 Kbps
Channel(s) : 2 channels
Sampling rate : 32.0 KHz
Compression mode : Lossy
Stream size : 98.7 MiB (14%)
Alignment : Split accross interleaves
Interleave, duration : 42 ms (1.00 video frame)
Interleave, preload duration : 500 ms
Writing library : LAME3.99r


Screen shots:

 










 



 Download Links

Click Here - Part 1
Click Here - Part 2
Click Here - Part 3
Click Here - Part 4

No comments:

Post a Comment

Comment here and request your stuff

Related Posts Plugin for WordPress, Blogger...